<?xml version="1.0" encoding="UTF-8" standalone="no"?> <svg xmlns:ooo="http://xml.openoffice.org/svg/export" xmlns:dc="http://purl.org/dc/elements/1.1/" xmlns:cc="http://creativecommons.org/ns#" xmlns:rdf="http://www.w3.org/1999/02/22-rdf-syntax-ns#" xmlns:svg="http://www.w3.org/2000/svg" xmlns="http://www.w3.org/2000/svg" xmlns:sodipodi="http://sodipodi.sourceforge.net/DTD/sodipodi-0.dtd" xmlns:inkscape="http://www.inkscape.org/namespaces/inkscape" version="1.2" width="1599.4808mm" height="353.51001mm" viewBox="0 0 159948.08 35351.001" preserveAspectRatio="xMidYMid" fill-rule="evenodd" stroke-width="28.222" stroke-linejoin="round" xml:space="preserve" id="svg588" sodipodi:docname="amptech_logo_2022_slogan.svg" inkscape:version="1.0.2-2 (e86c870879, 2021-01-15)"><metadata id="metadata592"></metadata> <defs class="ClipPathGroup" id="defs8"> <clipPath id="presentation_clip_path"> <rect x="0" y="0" width="260000" height="80000" id="rect2"></rect> </clipPath> <clipPath id="presentation_clip_path_shrink"> <rect x="260" y="80" width="259480" height="79840" id="rect5"></rect> </clipPath> </defs> <defs id="defs67"> <font id="EmbeddedFont_1" vert-origin-x="512" vert-origin-y="768" vert-adv-y="1024"> <glyph unicode="Ü" d="M 851,1630 L 771,1630 771,1749 851,1749 851,1630 Z M 408,1630 L 329,1630 329,1749 408,1749 408,1630 Z M 998,384 C 998,275 958,182 879,107 798,32 702,-6 589,-6 476,-6 379,32 299,107 220,182 181,275 181,384 L 181,1327 261,1327 261,384 C 261,295 293,220 357,159 420,98 498,67 589,67 681,67 759,98 822,159 887,221 919,296 919,384 L 919,1327 998,1327 998,384 Z" id="glyph14"></glyph> <glyph unicode="Z" d="M 1026,1342 L 289,67 983,67 983,-6 153,-6 890,1265 196,1265 196,1342 1026,1342 Z" id="glyph16"></glyph> <glyph unicode="Y" d="M 1186,1300 L 720,655 720,6 640,6 640,655 175,1300 239,1346 680,733 1121,1346 1186,1300 Z" id="glyph18"></glyph> <glyph unicode="W" d="M 1445,1319 L 1141,6 1073,6 811,768 549,6 480,6 177,1319 255,1335 524,174 811,1012 1098,174 1367,1335 1445,1319 Z" id="glyph20"></glyph> <glyph unicode="V" d="M 1152,1313 L 697,6 630,6 176,1313 251,1339 663,151 1077,1339 1152,1313 Z" id="glyph22"></glyph> <glyph unicode="U" d="M 998,384 C 998,275 958,182 879,107 798,32 702,-6 589,-6 476,-6 379,32 299,107 220,182 181,275 181,384 L 181,1327 261,1327 261,384 C 261,295 293,220 357,159 420,98 498,67 589,67 681,67 759,98 822,159 887,221 919,296 919,384 L 919,1327 998,1327 998,384 Z" id="glyph24"></glyph> <glyph unicode="T" d="M 983,1265 L 630,1265 630,6 550,6 550,1265 196,1265 196,1342 983,1342 983,1265 Z" id="glyph26"></glyph> <glyph unicode="S" d="M 998,310 C 998,233 970,163 915,100 852,29 768,-6 663,-6 588,-6 507,8 420,35 336,62 255,102 177,155 L 221,212 C 448,115 595,67 663,67 741,67 805,95 855,150 898,198 919,251 919,310 919,375 896,429 849,474 833,489 811,506 784,523 756,540 722,558 683,577 L 461,684 C 412,707 360,736 305,769 222,836 181,919 181,1020 181,1099 208,1169 262,1231 329,1305 418,1342 531,1342 676,1342 808,1308 928,1240 L 888,1180 C 715,1237 596,1265 531,1265 442,1265 373,1237 323,1181 282,1134 261,1081 261,1020 261,914 318,834 431,781 444,775 466,765 497,752 552,727 648,680 786,613 927,541 998,440 998,310 Z" id="glyph28"></glyph> <glyph unicode="R" d="M 998,949 C 998,737 906,613 723,576 L 1006,23 933,-5 642,561 C 625,559 602,558 571,558 L 261,558 261,6 181,6 181,1342 571,1342 C 678,1342 769,1318 842,1270 946,1201 998,1094 998,949 Z M 919,949 C 919,1068 879,1153 798,1206 738,1245 662,1265 571,1265 L 261,1265 261,634 571,634 C 664,634 739,653 798,692 879,743 919,829 919,949 Z" id="glyph30"></glyph> <glyph unicode="P" d="M 998,949 C 998,802 946,695 842,628 770,581 680,558 571,558 L 261,558 261,6 181,6 181,1342 571,1342 C 678,1342 769,1318 842,1270 946,1201 998,1094 998,949 Z M 919,949 C 919,1068 879,1153 798,1206 738,1245 662,1265 571,1265 L 261,1265 261,634 571,634 C 664,634 739,653 798,692 879,743 919,829 919,949 Z" id="glyph32"></glyph> <glyph unicode="O" d="M 998,384 C 998,275 958,182 879,107 798,32 702,-6 589,-6 476,-6 379,32 299,107 220,182 181,275 181,384 L 181,949 C 181,1058 220,1150 299,1227 379,1304 476,1342 589,1342 702,1342 799,1304 879,1228 958,1151 998,1058 998,949 L 998,384 Z M 919,384 L 919,949 C 919,1036 887,1110 823,1172 758,1234 680,1265 589,1265 498,1265 420,1234 357,1173 293,1112 261,1037 261,949 L 261,384 C 261,295 293,220 357,159 420,98 498,67 589,67 681,67 759,98 822,159 887,221 919,296 919,384 Z" id="glyph34"></glyph> <glyph unicode="N" d="M 998,6 L 926,6 261,1156 261,6 181,6 181,1327 253,1327 919,177 919,1327 998,1327 998,6 Z" id="glyph36"></glyph> <glyph unicode="M" d="M 1145,6 L 1066,6 1066,1165 663,522 261,1165 261,6 181,6 181,1327 252,1327 663,669 1075,1327 1145,1327 1145,6 Z" id="glyph38"></glyph> <glyph unicode="L" d="M 836,-6 L 181,-6 181,1327 261,1327 261,67 836,67 836,-6 Z" id="glyph40"></glyph> <glyph unicode="K" d="M 1005,26 L 936,-8 498,761 261,510 261,6 181,6 181,1327 261,1327 261,623 946,1347 1004,1296 555,821 1005,26 Z" id="glyph42"></glyph> <glyph unicode="I" d="M 261,6 L 181,6 181,1327 261,1327 261,6 Z" id="glyph44"></glyph> <glyph unicode="H" d="M 998,6 L 919,6 919,700 261,700 261,6 181,6 181,1327 261,1327 261,775 919,775 919,1327 998,1327 998,6 Z" id="glyph46"></glyph> <glyph unicode="G" d="M 998,-6 L 589,-6 C 472,-6 375,31 297,104 220,178 181,271 181,384 L 181,949 C 181,1068 225,1165 314,1241 394,1308 486,1342 589,1342 L 983,1342 983,1265 589,1265 C 506,1265 432,1238 368,1183 297,1122 261,1044 261,949 L 261,384 C 261,293 292,217 354,157 416,97 494,67 589,67 L 919,67 919,700 712,700 712,775 998,775 998,-6 Z" id="glyph48"></glyph> <glyph unicode="E" d="M 836,-6 L 181,-6 181,1342 836,1342 836,1265 261,1265 261,775 688,775 688,700 261,700 261,67 836,67 836,-6 Z" id="glyph50"></glyph> <glyph unicode="D" d="M 998,419 C 998,290 945,184 839,99 749,29 654,-6 553,-6 L 181,-6 181,1342 553,1342 C 654,1342 750,1306 839,1235 945,1150 998,1043 998,915 L 998,419 Z M 919,419 L 919,915 C 919,1020 876,1106 789,1175 714,1235 635,1265 553,1265 L 261,1265 261,67 553,67 C 636,67 714,97 789,157 876,226 919,314 919,419 Z" id="glyph52"></glyph> <glyph unicode="C" d="M 836,-6 L 589,-6 C 461,-6 361,28 289,96 217,165 181,261 181,384 L 181,949 C 181,1072 217,1168 289,1237 362,1307 462,1342 589,1342 L 836,1342 836,1265 589,1265 C 483,1265 402,1238 346,1184 289,1129 261,1051 261,949 L 261,384 C 261,333 268,288 283,249 298,210 319,177 347,150 374,123 408,103 449,89 489,74 536,67 589,67 L 836,67 836,-6 Z" id="glyph54"></glyph> <glyph unicode="B" d="M 998,384 C 998,233 937,124 815,55 742,14 666,-6 589,-6 L 181,-6 181,1342 589,1342 C 665,1342 732,1325 790,1292 886,1238 934,1147 934,1020 934,873 882,780 778,743 925,707 998,587 998,384 Z M 854,1020 C 854,1117 819,1186 748,1226 703,1252 650,1265 589,1265 L 261,1265 261,775 626,775 C 660,775 701,792 750,826 819,873 854,938 854,1020 Z M 919,384 C 919,562 820,667 623,700 L 261,700 261,67 589,67 C 652,67 713,84 774,119 871,174 919,263 919,384 Z" id="glyph56"></glyph> <glyph unicode="A" d="M 1153,16 L 1076,-2 954,345 373,345 252,-2 175,16 630,1327 697,1327 1153,16 Z M 929,421 L 663,1183 399,421 929,421 Z" id="glyph58"></glyph> <glyph unicode="2" d="M 836,-6 L 149,-6 719,875 C 748,920 762,969 762,1022 762,1091 739,1149 692,1196 645,1242 587,1265 516,1265 404,1265 322,1213 270,1110 267,1104 265,1099 264,1095 262,1090 258,1078 252,1058 L 176,1081 C 202,1166 246,1231 308,1276 370,1320 439,1342 516,1342 611,1342 689,1311 750,1250 811,1188 841,1112 841,1022 841,954 823,892 786,836 L 292,67 836,67 836,-6 Z" id="glyph60"></glyph> <glyph unicode="." d="M 261,6 L 181,6 181,125 261,125 261,6 Z" id="glyph62"></glyph> <glyph unicode=" " id="glyph64"></glyph> </font> </defs> <defs id="defs98"> <font id="EmbeddedFont_2" vert-origin-x="512" vert-origin-y="768" vert-adv-y="1024"> <glyph unicode="w" d="M 792,0 C 761,0 740,16 728,48 L 594,407 460,50 C 447,17 426,0 396,0 361,0 339,21 329,62 L 134,842 C 133,847 132,854 132,861 132,903 154,924 198,924 233,924 254,907 262,874 L 408,289 531,617 C 542,646 563,660 594,660 625,660 645,646 656,617 L 779,288 926,874 C 935,907 956,924 990,924 1007,924 1023,918 1036,906 1049,893 1056,878 1056,861 1056,854 1055,847 1054,842 L 858,58 C 849,19 827,0 792,0 Z" id="glyph73"></glyph> <glyph unicode="t" d="M 264,792 L 198,792 C 154,792 132,814 132,858 132,902 154,924 198,924 L 264,924 264,1254 C 264,1298 286,1320 330,1320 374,1320 396,1298 396,1254 L 396,924 594,924 C 638,924 660,902 660,858 660,814 638,792 594,792 L 396,792 396,66 C 396,22 374,0 330,0 286,0 264,22 264,66 L 264,792 Z" id="glyph75"></glyph> <glyph unicode="p" d="M 132,858 C 132,902 154,924 198,924 L 528,924 C 602,924 665,899 716,848 767,797 792,734 792,660 L 792,264 C 792,191 767,128 716,77 665,26 602,0 528,0 L 264,0 264,-330 C 264,-374 242,-396 198,-396 154,-396 132,-374 132,-330 L 132,858 Z M 264,792 L 264,132 528,132 C 565,132 596,145 622,171 647,196 660,227 660,264 L 660,660 C 660,697 647,729 622,754 597,779 565,792 528,792 L 264,792 Z" id="glyph77"></glyph> <glyph unicode="o" d="M 132,330 L 132,594 C 132,685 164,763 229,828 293,892 371,924 462,924 555,924 633,892 697,829 760,765 792,687 792,594 L 792,330 C 792,239 760,161 696,97 631,32 553,0 462,0 371,0 293,32 229,97 164,161 132,239 132,330 Z M 660,330 L 660,594 C 660,649 641,695 602,734 563,773 517,792 462,792 407,792 361,773 322,734 283,695 264,649 264,594 L 264,330 C 264,275 283,228 322,190 360,151 407,132 462,132 517,132 563,151 602,190 641,229 660,275 660,330 Z" id="glyph79"></glyph> <glyph unicode="m" d="M 198,924 L 792,924 C 866,924 929,899 980,848 1031,797 1056,734 1056,660 L 1056,66 C 1056,22 1034,0 990,0 946,0 924,22 924,66 L 924,660 C 924,697 911,729 886,754 861,779 829,792 792,792 L 660,792 660,66 C 660,22 638,0 594,0 550,0 528,22 528,66 L 528,792 264,792 264,66 C 264,22 242,0 198,0 154,0 132,22 132,66 L 132,858 C 132,902 154,924 198,924 Z" id="glyph81"></glyph> <glyph unicode="l" d="M 132,1254 C 132,1298 154,1320 198,1320 242,1320 264,1298 264,1254 L 264,198 C 264,164 286,142 330,132 374,122 396,100 396,66 396,22 374,0 330,0 271,0 223,18 187,53 150,88 132,136 132,198 L 132,1254 Z" id="glyph83"></glyph> <glyph unicode="h" d="M 132,1254 C 132,1298 154,1320 198,1320 242,1320 264,1298 264,1254 L 264,924 528,924 C 601,924 663,899 715,848 766,797 792,736 792,665 L 792,66 C 792,22 770,0 726,0 682,0 660,22 660,66 L 660,660 C 660,697 647,729 622,754 597,779 565,792 528,792 L 264,792 264,66 C 264,22 242,0 198,0 154,0 132,22 132,66 L 132,1254 Z" id="glyph85"></glyph> <glyph unicode="e" d="M 462,792 C 407,792 361,773 322,734 283,695 264,649 264,594 L 264,528 660,528 660,594 C 660,649 641,695 602,734 563,773 517,792 462,792 Z M 264,396 L 264,264 C 264,228 277,197 303,171 329,145 360,132 396,132 L 726,132 C 770,132 792,110 792,66 792,22 770,0 726,0 L 396,0 C 322,0 260,26 209,77 158,128 132,190 132,264 L 132,594 C 132,685 164,763 229,828 293,892 371,924 462,924 555,924 633,892 697,829 760,765 792,687 792,594 L 792,396 264,396 Z" id="glyph87"></glyph> <glyph unicode="c" d="M 264,660 L 264,264 C 264,228 277,197 303,171 329,145 360,132 396,132 L 594,132 C 638,132 660,110 660,66 660,22 638,0 594,0 L 396,0 C 322,0 260,26 209,77 158,128 132,190 132,264 L 132,660 C 132,734 158,797 209,848 260,899 322,924 396,924 L 594,924 C 638,924 660,902 660,858 660,814 638,792 594,792 L 396,792 C 359,792 328,779 303,754 277,728 264,697 264,660 Z" id="glyph89"></glyph> <glyph unicode="a" d="M 396,0 C 322,0 260,26 209,77 158,128 132,190 132,264 132,312 144,356 167,397 217,484 293,528 396,528 L 660,528 660,660 C 660,697 647,729 622,754 597,779 565,792 528,792 L 264,792 C 220,792 198,814 198,858 198,902 220,924 264,924 L 528,924 C 602,924 665,899 716,848 767,797 792,734 792,660 L 792,66 C 792,22 770,0 726,0 L 396,0 Z M 660,396 L 396,396 C 359,396 328,383 303,358 277,332 264,301 264,264 264,228 277,197 303,171 329,145 360,132 396,132 L 660,132 660,396 Z" id="glyph91"></glyph> <glyph unicode="@" d="M 726,-396 C 563,-396 423,-338 307,-221 190,-105 132,35 132,198 L 132,726 C 132,890 190,1030 306,1146 422,1262 562,1320 726,1320 891,1320 1031,1262 1147,1147 1262,1031 1320,891 1320,726 L 1320,264 C 1320,193 1300,132 1260,81 1217,27 1161,0 1091,0 1007,0 951,33 924,99 884,33 818,0 726,0 652,0 590,26 539,77 488,128 462,190 462,264 L 462,660 C 462,734 488,797 539,848 590,899 652,924 726,924 L 924,924 C 968,924 990,902 990,858 L 990,264 C 990,176 1023,132 1089,132 1122,132 1147,146 1165,175 1180,200 1188,229 1188,264 L 1188,726 C 1188,854 1143,963 1053,1053 963,1143 854,1188 726,1188 598,1188 489,1143 399,1053 309,963 264,854 264,726 L 264,198 C 264,71 309,-37 400,-128 491,-219 599,-264 726,-264 770,-264 792,-286 792,-330 792,-348 786,-363 773,-376 760,-389 744,-396 726,-396 Z M 858,792 L 726,792 C 689,792 658,779 633,754 607,728 594,697 594,660 L 594,264 C 594,228 607,197 633,171 659,145 690,132 726,132 763,132 794,145 820,171 845,196 858,227 858,264 L 858,792 Z" id="glyph93"></glyph> <glyph unicode="." d="M 132,132 C 132,176 154,198 198,198 242,198 264,176 264,132 L 264,66 C 264,22 242,0 198,0 154,0 132,22 132,66 L 132,132 Z" id="glyph95"></glyph> </font>
</defs>
</svg>
